extratorrent - A Fan Made Alternative Login   |   Register
Important Information
Registrations are open now
-------------------------------------

Please click here to register with Extratorrent2 to recieve latest updates, add bookmarks and to post comments.

Friends
Friends

1) Filebebo
-------------------------------------
2) MoviesDig
-------------------------------------
3) Torrentz2.cc
-------------------------------------
4) Torrents.me

Extratorrent2 > Categories > Music > Godsmack - 2018 - When Legends Rise (24-96) torrent


Browse Music torrents

Godsmack - 2018 - When Legends Rise (24-96) torrent


Download torrent: Download Godsmack - 2018 - When Legends Rise (24-96) torrent Magnet link Bookmark Torrent: Godsmack - 2018 - When Legends Rise (24-96)   Godsmack - 2018 - When Legends Rise (24-96) torrent
Info hash: 9FF8D5C14A18C5E08303B41A19733CEA28379FA7
Category: Categories > Music
Trackers:
View all torrent trackers >
Health:
 seeds: 4 ,  leechers: 1 |  Update >
Torrent language: English English
Total Size: 302.1 MB
Files List:
12    View torrent files >
Uploader:
KATJohnRambo
Torrent added: May 11, 2018, 5:35 pm
Users rating: ---, not rated. please login to rate.

Download Godsmack - 2018 - When Legends Rise (24-96) torrent



Torrent Description





--------------------------------------------------------------------------------
Analyzed: Godsmack / When Legends Rise (Grey Marbled Vinyl)
--------------------------------------------------------------------------------

DR         Peak         RMS     Duration Track
--------------------------------------------------------------------------------
DR12      -6.73 dB   -20.23 dB      2:48 01-When Legends Rise
DR12      -6.41 dB   -20.33 dB      2:52 02-Bulletproof
DR12      -6.59 dB   -20.49 dB      3:22 03-Unforgettable
DR12      -6.65 dB   -20.54 dB      3:14 04-Every Part Of Me
DR12      -6.24 dB   -20.74 dB      3:10 05-Take It To The Edge
DR11      -6.86 dB   -20.74 dB      3:41 06-Under Your Scars
DR12      -6.75 dB   -21.33 dB      4:37 07-Someday
DR12      -6.45 dB   -20.16 dB      3:04 08-Just One Time
DR13      -5.84 dB   -20.92 dB      3:33 09-Say My Name
DR12      -6.91 dB   -21.35 dB      3:34 10-Let It Out
DR12      -6.29 dB   -21.54 dB      3:13 11-Eye Of The Storm
--------------------------------------------------------------------------------

Number of tracks:  11
Official DR value: DR12

Samplerate:        96000 Hz
Channels:          2
Bits per sample:   24
Bitrate:           1098 kbps
Codec:             FLAC
================================================================================



If You Love The Sound Of The Album Please Buy A Copy To Support The Artist :-)


Download Godsmack - 2018 - When Legends Rise (24-96) torrent


Related Torrents

Added  Size  Health
Download Magnet link Browse Music torrent Godsmack - When Legends Rise 2018 ak320 in Music - MP3, by
analogkid610
2w 88.2 MB 105 8
Download Magnet link Browse Music torrent Godsmack - When Legends Rise (2018) Mp3 (320kbps) [Hunter] in Music - MP3, by
kajalsusi24
2w 88.3 MB 65 3
Download Magnet link Browse Music torrent Godsmack - When Legends Rise (2018) in Music - MP3, by
Freak37
2w 76.7 MB 125 1
Download Magnet link Browse Music torrent Godsmack - When Legends Rise 2018 ak in Music - MP3, by
analogkid610
2w 76.3 MB 15 11



Comments   (please login to add your comment!)


Home - Browse Torrents

Made with love by an Extratorrent Fan!